Rehabilitation of the Spine, by Craig Liebenson

Rehabilitation of the Spine, by Craig Liebenson
DVDRip | WMV | English | 720 x 480 | WMV2 ~2228 kbps | 29.970 fps
WMA ~128 Kbps | 44.1 KHz | 2 channels | 02:08:01 | 2.08 GB
Genre: eLearning Video / Massage, Rehabilitation, Medicine
The foremost authorities from chiropractics, orthopaedics and physical therapy present a practical overview of spinal rehabilitation. This clinical resource presents the most current and significant spinal rehab information, showing how to apply simple and inexpensive rehabilitation in the office. Includes clinical/regional protocols and chapters on diagnostic triage, acute care, functional assessment, recovery care, outcomes, and biopsychosocial aspects.

General
Complete name : Rehab of the Spine 111005-4.wmv
Format : Windows Media
File size : 120 MiB
Duration : 6 min 48 s
Overall bit rate : 2 462 kb/s
Maximum Overall bit rate : 128 kb/s
Encoded date : UTC 1970-01-01 00:00:00.000

Video
ID : 1
Format : WMV2
Codec ID : WMV2
Codec ID/Info : Windows Media Video 8
Description of the codec : wmv2
Duration : 6 min 48 s
Bit rate : 2 228 kb/s
Width : 720 pixels
Height : 480 pixels
Display aspect ratio : 3:2
Frame rate : 29.970 (29970/1000) FPS
Standard : NTSC
Bit depth : 8 bits
Bits/(Pixel*Frame) : 0.215
Stream size : 108 MiB (90%)

Audio
ID : 2
Format : WMA
Format version : Version 2
Codec ID : 161
Codec ID/Info : Windows Media Audio
Description of the codec : Windows Media Audio V8
Duration : 6 min 48 s
Bit rate : 128 kb/s
Channel(s) : 2 channels
Sampling rate : 44.1 kHz
Bit depth : 16 bits
Stream size : 6.23 MiB (5%)

Screenshots

DOWNLOAD
(Buy premium account for maximum speed and resuming ability)

http://nitroflare.com/view/855C350EB7F1653/ydzzy.Rehabilitation.of.the.Spine.by.Craig.Liebenson.part01.rar
http://nitroflare.com/view/CB60A21F56AF8E0/ydzzy.Rehabilitation.of.the.Spine.by.Craig.Liebenson.part02.rar
http://nitroflare.com/view/83DCE590CFFF246/ydzzy.Rehabilitation.of.the.Spine.by.Craig.Liebenson.part03.rar
http://nitroflare.com/view/3E6A362D76E1842/ydzzy.Rehabilitation.of.the.Spine.by.Craig.Liebenson.part04.rar
http://nitroflare.com/view/5B5582ABE2D6E42/ydzzy.Rehabilitation.of.the.Spine.by.Craig.Liebenson.part05.rar
http://nitroflare.com/view/B76420A4375F0A9/ydzzy.Rehabilitation.of.the.Spine.by.Craig.Liebenson.part06.rar
http://nitroflare.com/view/BADBCC7517D4D89/ydzzy.Rehabilitation.of.the.Spine.by.Craig.Liebenson.part07.rar
http://nitroflare.com/view/64B04E855B10675/ydzzy.Rehabilitation.of.the.Spine.by.Craig.Liebenson.part08.rar
http://nitroflare.com/view/3AD5672038D8B52/ydzzy.Rehabilitation.of.the.Spine.by.Craig.Liebenson.part09.rar
https://rapidgator.net/file/1e4d43a8cdd1789f634d29d72196c6ac/ydzzy.Rehabilitation.of.the.Spine.by.Craig.Liebenson.part01.rar
https://rapidgator.net/file/a942b26e564f478fc735886ee41dc37b/ydzzy.Rehabilitation.of.the.Spine.by.Craig.Liebenson.part02.rar
https://rapidgator.net/file/f19f185fb1846d1477d583a3781846ac/ydzzy.Rehabilitation.of.the.Spine.by.Craig.Liebenson.part03.rar
https://rapidgator.net/file/d16fff495413481bfc7179a152e2873b/ydzzy.Rehabilitation.of.the.Spine.by.Craig.Liebenson.part04.rar
https://rapidgator.net/file/9971424781aafb1a9dcf66c1001b455e/ydzzy.Rehabilitation.of.the.Spine.by.Craig.Liebenson.part05.rar
https://rapidgator.net/file/d36b3c079c381d1defbf6385b8fed041/ydzzy.Rehabilitation.of.the.Spine.by.Craig.Liebenson.part06.rar
https://rapidgator.net/file/497c678e13b0a54eb96049592b816e30/ydzzy.Rehabilitation.of.the.Spine.by.Craig.Liebenson.part07.rar
https://rapidgator.net/file/8c8d60828a5edc90625119b4b7afc4c6/ydzzy.Rehabilitation.of.the.Spine.by.Craig.Liebenson.part08.rar
https://rapidgator.net/file/c9ef56744854788581da4bb4198f5e10/ydzzy.Rehabilitation.of.the.Spine.by.Craig.Liebenson.part09.rar